Brahms Quartet C Minor

25 ~ Release by Brahms ; Rudolf Serkin , Busch Quartet ( see all versions of this release, 1 available ) Overview. 3 in C major, “The Bird” op. Johannes Brahms String Quartet in A minor, Op. 1 in G Minor, Op. 20 no 2/H 3 no 32: Available Recordings Brahms: Quartet for Strings no 2 in A minor, Op. 34, by Johannes Brahms was completed during the summer of 1864 and published in 1865. Piano Quartet in C Minor Op 60 III Andante 9:22. The Piano Quartet No. Each of Brahms’ quartets might be interpreted as a sort of homage: the driven c minor confronting Beethoven, the more genial B-flat Major tipping its hat to Haydn, with shades of reference to Mozart’s “Hunt” quartet as well. Presto Year/Date of Composition Y/D of Comp. Symphony No. Brahms: Piano Trios no. String Quartet in C Minor Op 33. 1 in E minor, Cello with Keyboard-1865 Op. 1 in C minor and String Quartet No. The music of Brahms. Read unlimited* books and audiobooks on the web, iPad, iPhone and Android. Johannes Brahms, Piano Quartet in C Minor, Op. Get this from a library! String quartet in C minor, op. String Quartets, Op. 51/1-1873 struments 1862 Sonata for Cello & Piano No. 1 in C minor, with the first movements of String Quartets Nos. Johannes Brahms - Piano Quartet in C Minor (Menahem Pressler) medici. Download our mobile app now. The String Quartet in C minor Op 51 No 1 works less well: the first violin’s conspicuous portamento won’t suit all tastes and the whole performance, with some uneven tuning, sounds rough at. With no transition, the music moves abruptly back to C minor and the “indifferent ones” sing again. Lista de temas de JOHANNES BRAHMS. 99, the Piano Trio No. View credits, reviews, tracks and shop for the Vinyl release of Piano Quartet In C Minor, Op. Email This BlogThis! Share to Twitter Share to Facebook Share to Pinterest. Brahms: Piano Trios no. Johannes Brahms : Clarinet Quintet in B minor. Find more Brahms / Bartok Quartet - String Quartets In C Minor And A Minor, Opus 51 vinyl records and LPs. 51, Sextet B Major, op. Allegro - Arranged by Brahms for Piano 4 Hands ed esplora 0 video creati da altri creator sia nuovi che famosi. 102 & Piano Quartet No. Brahms Piano Quintet F Minor Op 34 RUBINSTEIN / Guarneri Quartet. Beethoven & Brahms: String Quartets (Version 2. Download Johannes Brahms String Quartet No. Intermezzo. String Quartet in C-sharp Minor, Op. Clara Schumann circa 1850. com/Blop888String Quartet: Amadeus QuartetNorbert Brainin (1st violin)Siegmund Nissel (2nd violin)Peter Sch. Brahms*, The Weller Quartet* Brahms*, The Weller Quartet* - Brahms Quartets No. 25, was composed by Johannes Brahms between 1856 and 1861. 256 Brahms: Piano Concerto No. 1 in F major, op. Lista de temas de JOHANNES BRAHMS. Romanze (Poco adagio). It was premiered in 1861 in Hamburg, with Clara Schumann at the piano. Écoutez Brahms: The Three Piano Quartets par Menuhin Festival Piano Quartet sur Deezer. IV: Vivace Ma Non Troppo Presto - Animato. Brahms, Piano Quartet in C minor, opus 60, third movement (a. 34; Piano Trio No. Brahms immediately likes what he sees of Dvořák’s music and becomes a fervent supporter, model, and friend. Piano Quartet in c minor, Op. Each of Brahms’ quartets might be interpreted as a sort of homage: the driven c minor confronting Beethoven, the more genial B-flat Major tipping its hat to Haydn, with shades of reference to Mozart’s “Hunt” quartet as well. 25 "Friedrich Gernsheim was never given to writing for the sake of writing and you will rarely, if ever, find unnecessary notes or passages that serve as mere filler. brahms as a case study on the basis of his findings smith considers how brahmss approach in this piano quartet informs analyses of similar works by brahms as well as. 4 in E minor Deutsches Symphonie Orchester Berlin. Brahms Arranged by M. Brahms, Johannes - Piano Quartet No 3 in c minor Op 60 for Violin, Viola, Cello and Piano - Henle Verlag URTEXT Edition (0) | Write a review SHAR Price: $53. Spine: CS-226 Brahms—Quartet In C Minor, Op. 1 - String Quartet In a Minor, Op. Like most piano quintets composed after Robert Schumann 's Piano Quintet (1842), it is written for piano and string quartet (two violins , viola and cello ). For string quartet. 3 in F major, WoO 1 (solo piano) Hungarian Dance no. The Piano Quartet no. 1 String Quartet in A minor, op. 4 Composed in 1886, the C minor trio is strikingly compact. 18 (1826; rev. We have also enjoyed working with mezzo-soprano Maria Heseltine on works by Butterworth, Warlock and Barber. 88, was composed in 1882 in the spa town of Bad Ischl, Upper Austria, and published by the firm of Fritz Simrock. CD Sheet Music (Version 2. REM COMPOSER "Johannes Brahms (1833-1896)" FILE "Pražák Quartet - Brahms - String Quartet Op. Tracks on album. 2 (1873): I. 60, "Werther", 1875. Trio Wanderer, Christoph Gaugué, Viola. 88, was composed in 1882 in the spa town of Bad Ischl, Upper Austria, and published by the firm of Fritz Simrock. Listen for their shining tone in the Allegro of the Brahms quartet and, joined by Akiko Yamamoto, the Piano Quintet's Finale. 26, respectively, Op. 51/1-1873 struments 1862 Sonata for Cello & Piano No. 47, Brahms, Piano Quartet in C Minor, Op. BRAHMS: String Quartet in C minor, Op. 2 & 3 ℗ 1955 Decca Music Group Limited Released on: 1955-01-01 Associated Performer, Violin: Sándor Végh Associated Performer, Violin: Sándor Zoeldy Associated Performer, Viola: Georges Janzer. String Quartet in C minor op. 133 String Quartet in A Minor, Op. a) Johannes Brahms String Quartet No. 1 in C Minor, Op. The Piano Quartet No. It is a "viola quintet" in that it is scored for string quartet with a second viola. 1 in F Minor, Op. Well, his first string quartets were completed around the same time, when Brahms was already middle-aged and bearded. Brahms: Quartet No. Allegro non troppo,' which was featured in the The 100 soundtrack, and 'Hungarian Dance No. My experience with classical music is admittedly limited as I've focused more of my time on other genres of music. 25: Allegro 06. 2: Combines late romantic passion with classical restraint. Johannes Brahms. Intermezzo. 1 in F major, op. 1 in C minor and String Quartet No. 87-1882 String Instruments 1886 Sonata for Violin & Piano No. Brahms: Piano Quartet in G Minor, Op. method is applied to the rst movement of Brahms’ string quartet No. Piano Quartet No. It was listed as his String Quartet no. 2 in C minor 'Resurrection' (Mahler) Piano Concerto no. The pianist, she told me, he is so. Brahms: Quartets In A Minor & C Minor. 1 in C Minor, Op. View credits, reviews, tracks and shop for the Vinyl release of Piano Quartet In C Minor, Op. Popkin - Published by ALRY Publications. Allegro ma non troppo — Trio. Movements/SectionsMov'ts/Sec's. 60, completed by Johannes Brahms in 1875, is scored for piano, violin, viola and cello. IV: Vivace Ma Non Troppo Presto - Animato. 60, in C Minor, Boccherini: Sonata in D, Toch: Divertimento, Op. Symphony No. ) Following Beethoven’s example, his quartets are intensely serious compositions that display formidable compositional craft. Brahms, Piano Quartet in C minor. 31, an album by Mandelring Quartett on Spotify We and our partners use cookies to personalize your experience, to show you ads based on your interests, and for measurement and analytics purposes. Johannes Brahms's String Quartet No. 2 in A minor Op. 3 in C minor, Op. Beethoven & Brahms: String Quartets (Version 2. 2 in A minor were completed in Tutzing, Bavaria, during the summer of 1873, and published together that autumn as Op. 26, by Johannes Brahms is scored for piano, violin, viola and cello. Brahms' attitude toward the importance of the string quartet as the ultimate expression of the composer's craft can be understood when it is considered that he reputedly sketched and destroyed some 20 quartets before creating one worthy of publication. 1 : II Romanze - Poco Adagio. 25, was composed by Johannes Brahms between 1856 and 1861. 478 Allegro IMSLP. 2 in C minor, Op. Un video hecho por SMALIN. During these troubling times, the Arts allow us to stay connected and heal. III: Un Poco Allegretto. Stream ad-free or purchase CD's and MP3s now on Amazon. Johannes Brahms : Clarinet Quintet in B minor. 3 in C Minor, Op. 51 (superior for the mournful third movement if nothing else). August 2011 EAC extraction logfile from 15. Romanze (Poco adagio) 00:56: Brahms, Peter Planyavsky - Brahms Complete Edition - Disc 28 - Chorale Prelude and Fugue in A minor, WoO 7 for organ - Fugue. Rondo alla zingarese. 1 by Johannes Brahms (1833-97). Brahms, Johannes - String Quartet in c minor Op 51 No 1 Parts for Two Violins, Viola and Cello - Breitkopf and Haertel Edition. BRAHMS Piano Quartets Nos. Brahms: Chamber Music Alec Frank-Gemmill (horn), Daniel Grimwood (piano), Benjamin Marquise Gilmore (violin) (BIS) An hour’s worth of Brahms’s chamber music for horn? Almost; we get the familiar Opus 40 Trio here, plus arrangements of the Op 38 Cello Sonata and the Scherzo in C minor. Brahms: Quartets In A Minor & C Minor. This disk can be played end to end without skipping or getting stuck, but visually the disk may have very light visible wear, marks and or hairlines on the disk. Reviewed: 1 March, 2008. 60, "Werther. 60 Violin: Cho-Liang Lin Viola: Brian Chen Cello: Paul Watkins Piano: Rohan De Silva. 1 CD Album Free shipping over £20. Allegro non troppo" PERFORMER "Pražák Quartet" REM COMPOSER "Johannes Brahms" INDEX 01 00:00:00 TRACK 02 AUDIO. Brahms chamber music. 1 in C minor, Op. Check out Brahms: String Quartet in C Minor, Op. Because here is a girl who knows her pharmaceuticals. 2 in C major, Op. ” The Primrose Piano Quartet has previously recorded Romantic repertoire to great acclaim with their award-winning recordings for the Meridian label including works by Schubert, Fauré and Richard Strauss. 1 in C minor Op. Piano Quartet in C Minor, Op. String Quartet in C Minor WAB 111 III Scherzo Presto. The Piano Quintet in F minor, Op. Brahms regarded the string quartet, toghether with the symphony, as a very important genre (with Beethoven's works in the field considered definitive and exerting a paralyzing influence over him). 1 in G minor op. Piano Concerto No. 3, in F Major,. 4 in C minor, Op. 1st Trumpet is harder than the other parts and goes up to a written high E. 1 & Clarinet Quintet in B Minor, Op. It is also believed that the composer invested so much of himself in it; his ailing health, the social isolation brought about by his deafness and the suicide attempt of his. 1 and Piano Quartet No. 304; Vaughan Williams: The Lark Ascending, Romance for Violin and Orchestra; Saint-Saens: Introduction and Rondo Capriccioso, op. Download Brahms, The Hollywood Bowl Symphony Orchestra, Leopold Stokowski - Brahms, Symphony No. Rachmaninoff - Piano Concerto #2 in C Minor, Op. The quartet continues its honorable tradition of alternating the seats of the violinists, and Philip Setzer drew the first violin straw for the second quartet of op. Опубликовано: 2012-12-21 Продолжительность: 30:21 String Quartet: Amadeus Quartet Norbert Brainin (1st violin) Siegmund Nissel (2nd violin) Peter Schidlof (viola) Martin Lovett (cello) The Amadeus Quartet was a world famous string quartet founded in 1947. Brahms, Piano Quartet in C minor, opus 60, third movement (a. It was dedicated to Her Royal Highness Princess Anna of Hesse. 1 in C minor and String Quartet No. This excellent coupling may at first seem one more of convenience than intention, but it was Schoenberg himself who pointed towards Brahms’ String Quartet op. Brahms immediately likes what he sees of Dvořák’s music and becomes a fervent supporter, model, and friend. Poco adagio (Arranged by Brahms for Piano 4 Hands)03. pl • Brahms Piano Quartet No. 2 in A Minor, Op. Johannes Brahms's String Quartet No. String Quartet No. String Quartet in C Minor WAB 111 III Scherzo Presto. Brahms, on the other hand - the classicist and academician - does not exclusively reveal himself as the preserver of the string quartet tradition in the work recorded here, but also as an innovator of musical language. 163/D 956 Chadwick: Quartet for Strings no 4 in E minor Foote: Nocturne and Scherzo for Flute and String. 304; Vaughan Williams: The Lark Ascending, Romance for Violin and Orchestra; Saint-Saens: Introduction and Rondo Capriccioso, op. Artist: Takács Quartet. 14 In C Sharp Minor, Op. 60, composed for violin, viola, cello and piano, also known as Werther quartet. The three string quartets of Johannes Brahms are. 60 - Menahem Pressler, Salvatore Accardo, Antoine Tamestit, Gautier Capuçon - Verbier Festival for $12. Composed during 1854 and revised in 1889, the first trio is the only work by Brahms to exist in two published versions. 60 In C Minor: III. Tracks: Brahms: String Quartet No. The Budapest Strinq Quartet Play Brahms (classical music album) - Play streams in full or download MP3 from Classical Archives (classicalarchives. Time and again, he was bothered by its intermittent inaudibility: the piano tended to swamp the strings. String Quartet No. Квартет имени Бородина, Иоганнес Брамс - Brahms: String Quartet No. 1 in C minor, Op. See all 6 formats and editions Hide other formats and editions. Download Beethoven: String Quartet No. Johannes Brahms (7 May, 1833 – 3 April 1897) was a German composer and pianist. German Romantic composer Johannes Brahms was born in Hamburg in 1833 and died in Vienna, Austria in 1897. Allegro non troppo" PERFORMER "Pražák Quartet" REM COMPOSER "Johannes Brahms" INDEX 01 00:00:00 TRACK 02 AUDIO. 44 Robert Schumann; Piano Quintet in F Minor, Op. String Quartet C minor: Op. Like most piano quartets, it is scored for piano, violin, viola and cello. 61/B 121 Schubert: Quintet for Strings in C major, Op. Brahms, Piano Quartet in C minor, opus 60, third movement (a. 2 in A Minor, dating from 1873, nearly 20 years after Robert Schumann’s death in 1856 at age 46. 2 Brahms: Symphony no. The home page for the official web site of the Pyxis Piano Quartet. 133 String Quartet in A Minor, Op. 60 by Johannes Brahms. 1 in C minor, Op. Works for Solo Piano, Volume Six. December, 1999 Carla Trynchuk & Carmen Roberts: Concert Tour to India. In Durham, the Modigliani concentrates on the romantic strain, beginning with the Schubert “Quartettsatz” — the spirited first movement of an unfinished quartet — and Brahms’ halting and haunting Quartet in C Minor. 51-I, Romanze, poco adagio. IJB 93 Key C minor Movements/Sections Mov'ts/Sec's: 4 movements: Allegro energico Presto. Amadeus Quartet & Karl Leister, clarinet. The tense, muttering figure of the opening. 99 on iTunes; Brahms — Piano Quintet in F Minor, Op. We specialize in rare, high quality pressings. Discover releases, reviews, track listings, recommendations, and more about Brahms* / Tokyo String Quartet - String Quartets: No. Prior to its composition, he worked extensively on a rather unorthodox quartet in C-sharp minor. 1 In C Minor, Op. String Quartet No. 115 | Aris Quartett to stream in hi-fi, or to download in True CD Quality on Qobuz. 2 in a minor must have somewhere in its ancestry the Schubert quartet in the same key. 1 In C Minor, Op. Galya Bisengalieva. Brahms’ early chamber music was mostly written for combinations that also avoid direct comparison with established models and precursors. Allegro (Arranged by Brahms for Piano 4 Hands)02. 2) that is most memorably transformed here, with a flexibility of phrasing, organic suppleness of tempo and tender espressivo that are deeply affecting. Recorded live at the Music Shed on Saturday, July 27, 2019. You can help secure the future of the Garth Newel Music Center by using the Register option to make a tax-deductible. Johannes Brahms, Soundtrack: Grosse Pointe Blank. Brahms’ Scherzo (“good fun—and harmless,” according to William Murdoch in his study of Brahms) follows the traditional three-part scherzo form, with a rather stormy C minor paragraph at the beginning and end surrounding a more lyrical central trio. Today's composers would love to discover the elusive formula for artistic permanence. 11 Choral Preludes for Organ Kelvin Smith. PRO ARTE PLAYERS HEARD IN CONCERT; Group, Formerly of Belgium, Aids Belgians in Britain by Its Town Hall Program GIVES BRAHMS SELECTION C Minor Quartet, Beethoven C Sharp Minor, Shostakovich Opus. Hundreds of supplemental examples in various formats (mp3, pdf, swf) for teaching tonal music theory. Like most piano quintets composed after Robert Schumann 's Piano Quintet (1842), it is written for piano and string quartet (two violins , viola and cello ). 60 by brahms at Walmart. performers: Johannes. In August 1862, Brahms sent the first three movements to his friends, pianist Clara Schumann and violinist Joseph Joachim. Johannes Brahms. 1 in A minor, op. Abend (II Cyclus); Johannes Brahms zum Gedächtniss/Johannes Brahms Memorial Concert: Quartet C Minor, op. as its members explore good music, is among the most civilized enjoyments known to mankind. 51/1-1873 struments 1862 Sonata for Cello & Piano No. For string quartet. dent in Brahms’s String Quartet in A minor, Op. 11 in C major Op. 101 (1886). Brahms’ String Quartet No. He labored painstakingly over his works before allowing them to be published and ruthlessly destroyed any attempt he deemed unsuccessful. The Piano Quintet in F minor, Op. Reviewed: 1 March, 2008. Amadeus Quartet & Karl Leister, clarinet. 108 Violin: Tereza Stanislav Piano: Rohan De Silva. Paul Watkins' solo opening the Andante was particularly eloquent and overall the performance was larger than life. henle verlag piano quartet c minor op. Begun in 1855, concurrent with first drafts for his first two piano quartets, Op. My experience with classical music is admittedly limited as I've focused more of my time on other genres of music. This is a hybrid Super Audio CD playable on both regular and Super Audio CD players. 1 - String Quartet In a Minor, Op. Read reviews from world's largest community for readers. 36 New Hollywood String Quartet Viola: Brian Chen Cello: Paul Watkins. 1 in G minor, Op. Like most piano quintets composed after Robert Schumann 's Piano Quintet (1842), it is written for piano and string quartet (two violins , viola and cello ). Brahms is sometimes considered principally a composer of chamber music, and it is true that his chamber music is strong - but his orchestral works are even better (though he wrote much more of the former). Brahms Arranged by M. 14 In C Sharp Minor, Op. Johannes Brahms (1833-1897) String Quartet in C minor, op. 26 PERFORMER: Schubert Ensemble of London CATALOGUE NO: CD QS 6199 This recording completes the Schubert Ensemble’s three-disc survey of the three piano quartets by Mendelssohn and the three by Brahms. 34, by Johannes Brahms was completed during the summer of 1864 and published in 1865. 1 in B Major, Op. 2 in A Minor, Op. COMPOSERS: Mendelssohn/Brahms LABELS: ASV Quicksilva WORKS: Piano Quartet in C minor, Op. In this masterclass, he focuses on a magnificent and tragic work by Johannes Brahms: the Piano Quartet in C Minor, Op. SEALED New MINT. Prizewinners at the 2015 Wigmore Hall International String Quartet Competition, the Piatti Quartet have long been associated with the JdP. Movement One: Allegro - 0:00 Movement Two: Romanze. Artist Johannes Brahms,Wolfgang Amadeus Mozart,Drolc-Quartett. Brahms, Johannes Quartet No. a) Johannes Brahms String Quartet No. If the French players don't quite match the Spaniards' sheer spontaneity, their. 25: Andante con moto 08. Its performance of the C minor quartet may lack the tonal and dynamic variety brought to it by groups like the Alban Berg Quartet and the Cleveland Quartet, both of which make a lot more of the Allegretto’s poco animato section and are more expressively lyrical. Sheet Music Hungarian Dance No. Piano Quartet No. 1 in C Minor, Op. Johannes Brahms (Composer)|Aris Quartett (String quartet)|Thorsten Johanns (Clarinet) Johannes Brahms: String Quartet No. This week I’ll be talking about a very special modulation from the First movement of the Piano Quartet in C minor No. The Piano Quintet in F minor, Op. Piano Quartet No. As every parent knows, twins do not necessarily turn out alike. 81 (Heifetz Remastered) by Jascha Heifetz on Apple Music. Brahms: String Quartet No. Like most piano quintets composed after Robert Schumann 's Piano Quintet (1842), it is written for piano and string quartet (two violins , viola and cello ). The Fourth Symphony, the Second Piano Concerto, and the Violin Concerto are the crown jewels of Brahms' oeuvre. 3 in C Minor, Op. For string quartet. 4 in E Minor, Op. Allegretto molto moderato e comodo. 1: Allegretto molto moderate e comodo - Un poco più animato. String Quartet No. No comments:. 5 in F-sharp minor, WoO 1 (string orchestra arr. This week I’ll be talking about a very special modulation from the First movement of the Piano Quartet in C minor No. Piano Quartet No. The musicians also are fully attuned to the C minor quartet's volatile dramatic contrasts, frequent rhythmic displacements, and unpredictable turns of harmony. Only marginally less molten was Brahms' C-Minor String Quartet. lp_brahms-quartet-no-1-in-c-minor-op-51-no-1_budapest-string-quartet-johannes-brahms-an Identifier-ark ark:/13960/t4fp0vs0g Lineage Technics SL1200MK5 Turntable + Audio-Technica AT95e cartridge > Radio Design Labs EZ-PH1 phono preamp > Focusrite Scarlett 2i2 Ocr tesseract 4. Brahms regarded the string quartet, toghether with the symphony, as a very important genre (with Beethoven's works in the field considered definitive and exerting a paralyzing influence over him). Top Johannes Brahms Works See All. 2, String Quintet Op. The great Juilliard Quartet present a boxed set with late Schubert quartets and the Brahms quintets. 102 & Piano Quartet No. 2 in D minor, WoO 1 (solo piano) Hungarian Dance no. World wide shipping String Quartet C minor - 1st Movement Op. Brahms - Piano Quartet No. 60 Allegro non troppo IMSLP Fauré, Gabriel Quartet in C minor for Piano, Violin, Viola, and Cello, Op. as its members explore good music, is among the most civilized enjoyments known to mankind. Find out at which radio station you can hear Brahms, LaSalle Quartet - Brahms Complete Edition - Disc 15 - String Quartet No. Chopin: Prélude in C minor Chopin: Grande valse brillante Brahms: Clarinet Sonata no. 131 by Wiener Philharmoniker; Leonard Bernstein in high-resolution audio at ProStudioMasters. 1 - Reinecke: Introduzione ed allegro appassionato in C Minor, Op. Brahms' attitude toward the importance of the string quartet as the ultimate expression of the composer's craft can be understood when it is considered that he reputedly sketched and destroyed some 20 quartets before creating one worthy of publication. RCA reissue AGL1-4894. 60, 1st mov. The abandoned C sharp minor Quartet had been an out-and-out product of his years of youthful Romantic turmoil, of Sturm und Drang. 5,' featured in the Forza Horizon 3 soundtrack. 18 (Rachmaninov) Symphony no. Johannes Brahms, Wolfgang Amadeus Mozart, Drolc-Quartett - Quintet In B Minor Op. The 23-strong group has already released recordings of string quartets by Beethoven, Shostakovich, Verdi, Haas and Schulhoff, and here they mete out the same large-scale treatment to Brahms's first quartet, in C minor. 0000 Ocr_detected. It was dedicated to Her Royal Highness Princess Anna of Hesse. 3 Disc CD Set FoghornClassics: FCL2002. Free 2-day shipping. 1 in C Minor, Op. Adagio - Piu Andante - Allegro non troppo, ma con brio - Piu Allegro" is featured in The Defenders episode Take Shelter. Brahms : Clarinet Quintet In B Minor Op 115/String Quartet In C Minor Op 51 No 1 -- Reginald Kell/Busch Quartet (CD). III: Un Poco Allegretto. Piano Concerto No. 3, in F Major,. 60 Dvorak Piano Quartet in E-flat major, op. Begun in 1855, concurrent with first drafts for his first two piano quartets, Op. com), the largest and best organized classical music site on the web. Johannes Brahms - Piano Quartet in C Minor (Menahem Pressler) medici. 1 String Quartet in A minor, op. Brahms’ early chamber music was mostly written for combinations that also avoid direct comparison with established models and precursors. Music Monday | Watch an excerpt of the Belcea Quartet performing Brahms's String Quartet in C Minor, Op. , E♭-D-C-B-C) fou detectat per primera vegada per Eric Sams en els seus assajos i llibres sobre Schumann i Brahms. 2 & 3 ℗ 1955 Decca Music Group Limited Released on: 1955-01-01 Associated Performer, Violin: Sándor Végh Associated Performer, Violin: Sándor Zoeldy Associated Performer, Viola: Georges Janzer. 67, Brahms Piano Quartet in C minor, Op. 60 - Menahem Pressler, Salvatore Accardo, Antoine Tamestit, Gautier Capuçon - Verbier Festival for $12. When Brahms submitted the score of his third piano quartet to his longtime publisher, he wrote that the cover should show picture a man holding a gun to his head, such was the black melodrama of the music and the quartet's eventual nickname after Goethe's young, suicidal Werther. The forms are crisply classical and the music is derived from a minimal set of ideas, another hallmark of the great tradition. Johannes Brahms String Quartet in A minor, Op. 3m members in the classicalmusic community. Items to buy by Brahms. 1 in C Minor, Op. Johannes Brahms · Song · 2007. Johannes Brahms' String Quintet No. Brahms__Johannes_-_String_Quartet_C_minor__Op_51_mvmt_3_. RCA reissue AGL1-4894. A perfectionist, he often compared himself unfavorably to composers such as Beethoven and ended up destroying many compositions without their ever being heard. The Piano Quintet in F minor, Op. Klaviertrio c-Moll; Trio c-Moll; Trio für Pianoforte, Violine und Violoncell; Piano Trio in C minor; Trio in C minor: Authorities Wikipedia; BNF: 13908840h: Composer Brahms, Johannes: Opus/Catalogue Number Op. SEALED New MINT. Johannes Brahms : Clarinet Quintet in B minor. Bibliographic Record. His composition "Tragic Overture, Op. Hundreds of supplemental examples in various formats (mp3, pdf, swf) for teaching tonal music theory. ” The Primrose Piano Quartet has previously recorded Romantic repertoire to great acclaim with their award-winning recordings for the Meridian label including works by Schubert, Fauré and Richard Strauss. 1 in G Minor, Op. Allegro Non Assai. lp_brahms-quartet-no-1-in-c-minor-op-51-no-1_budapest-string-quartet-johannes-brahms-an Identifier-ark ark:/13960/t4fp0vs0g Lineage Technics SL1200MK5 Turntable + Audio-Technica AT95e cartridge > Radio Design Labs EZ-PH1 phono preamp > Focusrite Scarlett 2i2 Ocr tesseract 4. Brahms: Quartets In A Minor & C Minor. 1 in C Minor, Op. 60 - Menahem Pressler, Salvatore Accardo, Antoine Tamestit, Gautier Capuçon - Verbier Festival for $12. 304; Vaughan Williams: The Lark Ascending, Romance for Violin and Orchestra; Saint-Saens: Introduction and Rondo Capriccioso, op. Brahms' attitude toward the importance of the string quartet as the ultimate expression of the composer's craft can be understood when it is considered that he reputedly sketched and destroyed some 20 quartets before creating one worthy of publication. 26, by Johannes Brahms is scored for piano, violin, viola and cello. His orchestral compositions and operas have made him one of the best known composers of the late 19th and 20th century. Adderbury Ensemble at St John the Evangelist. 51 ‎ (LP, Album, Mono) Decca, Decca: LXT 6151, LXT. In addition to the opening movement, Schubert also composed the first forty bars of a second movement marked Andante. 3 in B flat major, Op. 87-Feb 14 – This event has been postponed. 3 in C minor, Op 60. The musicians also are fully attuned to the C minor quartet's volatile dramatic contrasts, frequent rhythmic displacements, and unpredictable turns of harmony. Download Brahms, The Hollywood Bowl Symphony Orchestra, Leopold Stokowski - Brahms, Symphony No. Our growing Schubert interest is demonstrated by performances of the C minor Quartettsatz (1814), the 'Rosamunde' Quartet (1824) as well as the fabulous String Quintet in C (1828) with guest ‘cellist Patrick Gale. String Quartet No. How to create a webinar that resonates with remote audiences; Dec. 1 in C minor and String Quartet No. 1 String Quartet No. Borrowing a device from her beloved but recently deceased husband Robert, Brahms. This excellent coupling may at first seem one more of convenience than intention, but it was Schoenberg himself who pointed towards Brahms’ String Quartet op. III: Un Poco Allegretto. 51 (Brahms). Schoenberg) - Parry: Elegy for Brahms | Various Composers by Gävle Symphony Orchestra – Download and listen to the album. Book Actions. 1 & Clarinet Quintet in B Minor, Op. SEALED New MINT. 81 (Heifetz Remastered) by Jascha Heifetz on Apple Music. Allegro - Arranged by Brahms for Piano 4 Hands è un brano popolare di Stefania Redaelli & Gabriele Dal Santo | Crea i tuoi video TikTok col brano String Quartet No. 60 - Friday, November 27, 2020 - Find event and registration information. Johannes Brahms (May 7, 1833 â April 3, 1897) was a German composer of the Romantic period. 1–3 • Pro Arte Pn Qrt • QUARTZ 2105 (2 CDs: 119:03) The current incarnation of the Pro Arte Piano Quartet was founded in 1989 by three members of the St. Brahms: String Quartet No. Allegro, Piano Quartet No. Many anecdotes surround String Quartet op. It was dedicated to Her Royal Highness Princess Anna of Hesse. Email This BlogThis! Share to Twitter Share to Facebook Share to Pinterest. In 1869 Brahms reprised his work, but still f. 1 in C minor and String Quartet No. Composer(s) Johannes Brahms. They are dedicated to his friend Theodor Billroth. 34, by Johannes Brahms was completed during the summer of 1864 and published in 1865. Allegro (Remastered)" and. 115 Aris Quartett, Thorsten Johanns. 1 in G minor, Op. University of California, Berkeley, 1981. Brahms String Quartet Op. 2) that is most memorably transformed here, with a flexibility of phrasing, organic suppleness of tempo and tender espressivo that are deeply affecting. Johannes Brahms Arranged by Mark Popkin. 2 in A Minor, Op. 2 in A minor were completed in Tutzing, Bavaria, during the summer of 1873, and published together that autumn as Op. Andante, un Poco Adagio," and many more. Brahms: Piano Quartet in G Minor (Orch. The facts of this autograph correction can be deciphered without any difficulty. Amadeus Quartet — String Quartet No. It is the first movement, of a string quartet which Schubert never completed. 3 Piano Quintet in F minor, op. CONCERT HALL OF THE MARIINSKY THEATRE Sunday, 11 November 2012 The State Borodin Quartet Ruben Aharonian - violin Sergei Lomovsky - violin Igor Naidin - viola Vladimir Balshin - cello Johannes Brahms String Quartet No 1 in C Minor, op. 47, Brahms, Piano Quartet in C Minor, Op. The Emerson Quartet has presented a worthy recording, but moments of stridency that distort some of the tunings among instruments mar some of the movements. Brahms: String Quartet in C minor Op 51 No1 Posted by europe music at 5:26 AM. 67 Clarinet Quintet in B minor, Op. 3 in D minor, Op. 1 in C minor, Op. Le rue Delashay. 2 in F major, Op. Upon publication it was nonetheless listed as his “String Quartet No. String Quartet No. Allegro Non Assai. But Brahms at that time struggled with large-scale works, and the piano quartet was not a popular form. In 2003 the Belcea Quartet recorded a nerves-on-a-knife’s-edge account of Brahms’s C minor Quartet (Op 51 No 1) for EMI. By Johannes Brahms. Intermezzo. Johannes Brahms's String Quartet No. 2 in A Minor, dating from 1873, nearly 20 years after Robert Schumann’s death in 1856 at age 46. 5: Brass Quartet composed by Brahms. German Romantic composer Johannes Brahms was born in Hamburg in 1833 and died in Vienna, Austria in 1897. In 2003 the Belcea Quartet recorded a nerves-on-a-knife's-edge account of Brahms's C minor Quartet (Op 51 No 1) for EMI. 2 & Handel Variations Johannes Brahms: Songs of Loss & Betrayal. Johannes Brahms : Clarinet Quintet in B minor. At first a hushed and haunting movement, the mood brightens and becomes livelier in the A-flat major Trio. The musicians also are fully attuned to the C minor quartet's volatile dramatic contrasts, frequent rhythmic displacements, and unpredictable turns of harmony. They are dedicated to his friend Theodor Billroth. 2 in A minor were completed in Tutzing, Bavaria, during the summer of 1873, and published together that autumn as Op. Johannes Brahms completed his Quartet no. Brahms - Piano Quartet No. The Eclat Quartet is an ensemble of young performers from the United States, China and Bulgaria who are candidates for the Doctor of Musical Arts Degree at Rice University. JOHANNES BRAHMS. Composed for string quartet between 1865 and 1873 ca. Artist: Takács Quartet. 25; Piano Quartet No. 1 in C Minor, Op. 3 in C Minor, Op. It is a "viola quintet" in that it is scored for string quartet with a second viola. In his excellent, comprehensive survey of the piano trio, Professor Basil Smallman summarizes the contribution of Brahms: "With the C major and C minor trios Brahms brought the genre, in its classical-romantic forms, to a splendid culmination in the late nineteenth century. 27 Johannes Brahms – String Quartet A minor op. 102 & Piano Quartet No. Piano Quartet No. Brahms immediately likes what he sees of Dvořák’s music and becomes a fervent supporter, model, and friend. Quartet No. Also on the program is Brahms’ String Quartet No. The Cleveland quartet is one of my favorite string quartets, but I do not like this particular recording of theirs. Piano Quartet No. The consistently repeated eighth notes creates an effect of perpetual motion, even agitation, although the melodic themes are quite lyrical. The fourth movement (finale) of Johannes Brahms' Piano Quartet in C minor, opus 60, accompanied by an animated score. 1 in c minor, Op. Recent albums by Johannes Brahms. It was dedicated to Her Royal Highness Princess Anna of Hesse. 59]--Part 1. 60 Piano Quartet in A, Op. The world's largest online music service. 1 - String Quartet In a Minor, Op. See our disclaimer. The forms are crisply classical and the music is derived from a minimal set of ideas, another hallmark of the great tradition. Discover releases, reviews, track listings, recommendations, and more about Brahms* / Tokyo String Quartet - String Quartets: No. 1 in B minor op. Johannes Brahms. 60 - Menahem Pressler, Salvatore Accardo, Antoine Tamestit, Gautier Capuçon - Verbier Festival for $12. Johannes Brahms - Piano Quartet in C Minor (Menahem Pressler) medici. Johannes Brahms : Clarinet Quintet in B minor. Stream ad-free or purchase CD's and MP3s now on Amazon. Johannes Brahms, The Festival Quartet ‎- Brahms: Piano Quartet C Minor Op60. Download MP3s All of the Onyx catalogue is available for download in MP3 format. 3 in C Minor, Op. CD Sheet Music (Version 2. Piano Quartet in G Minor, Op. This lets up slowly in the second movement, and in the third, the tone is sweet and tender. 1 and Piano Quartet No. This week we focus on one of the most delightful and storied chapters of the string quartet’s history, centering around the works of three romantic composers—Mendelssohn, Schumann, and Brahms. Be apart of my Facebook page! http://www. Piano Quartet No. 1 in C Minor, Op. brahms as a case study on the basis of his findings smith considers how brahmss approach in this piano quartet informs analyses of similar works by brahms as well as. on the telephone. Petite Classics for Easiest Piano Booklet X2 Claude Debussy, Johannes Brahms, Ludwig van Beethoven; Piano Quartet No. It consisted of three movements with a central Andante and a passionate Finale. String Quartet in C Minor, Op. The Piano Quartet No. 3 in C minor, Op. The key of A major provides a sunny, outgoing tonality for Brahms, and the Second Quartet stands in relation to the G minor in the same way as the D major Second Symphony does to the C minor First: moving up a key unlocked all the knots in the spine of his creative thought. Recent albums by Johannes Brahms. Author: Brahms, Johannes, 1833-1897: Title: String Quartet. Musgrave M. The Piano Quartet in G minor, Op. How to create a webinar that resonates with remote audiences; Dec. Brahms wrote a number of major works for orchestra, including four symphonies, two piano concertos (No. Piano Quartet No. The C Minor Intermezzo moves with a suave surety, the piano part beautifully subdued to accommodate the often busy, metrically askew impulses from the strings. III: Un Poco Allegretto. Download Brahms, The Hollywood Bowl Symphony Orchestra, Leopold Stokowski - Brahms, Symphony No. 3 in C Minor • Klasyka • pliki użytkownika rycerz-swiatla przechowywane w serwisie Chomikuj. 51-I, Romanze, poco adagio. 2, an album by Jascha Heifetz on Spotify. Brahms: String Quartet No. Browse: Brahms - String Quartet No. The quartet continues its honorable tradition of alternating the seats of the violinists, and Philip Setzer drew the first violin straw for the second quartet of op. 1 in G minor, Op. String Quartet No. Allegro non troppo" PERFORMER "Pražák Quartet" REM COMPOSER "Johannes Brahms" INDEX 01 00:00:00 TRACK 02 AUDIO. 3 in C Minor, Op. Upon publication it was nonetheless listed as his “String Quartet No. Allegro non troppo Scherzo: Allegro Andante Finale: Allegro comodo. String Quartet in C-sharp Minor, Op. 2 & Handel Variations Johannes Brahms: Songs of Loss & Betrayal. 102 & Piano Quartet No. 3 in C minor for Piano, Violin, Viola, and Cello, Op. 133 String Quartet in A Minor, Op. 60 Johannes Brahms. Allegretto molto moderato e comodo - Un poco più animato Amadeus Quartet. …completed an orchestration of Brahms's Piano Quartet in G Minor , Opus 25. 1—Quartet In A Minor, Op. Violin Sonata No. , E♭-D-C-B-C) fou detectat per primera vegada per Eric Sams en els seus assajos i llibres sobre Schumann i Brahms. 2) that is most memorably transformed here, with a flexibility of phrasing, organic suppleness of tempo and tender espressivo that are deeply affecting. Amadeus Quartet & Karl Leister, clarinet. Johannes Brahms · Song · 2007. 3 Disc CD Set FoghornClassics: FCL2002. Movements/SectionsMov'ts/Sec's. 11 in C major Op. wav Peak level 97. 1 in C Minor, Op. String Quartet No. CD Sheet Music (Version 2. RCA reissue AGL1-4894. 1 in D minor; No. 1 in G Minor, Op. Posted by 7 years ago. Piano Quartet No. , Hollywood 28, Calif. We know from a letter from Joseph Joachim that a C minor quartet was in progress in 1865, but String Quartet No. 1 in C minor and 2 in A minor were completed in Tutzing, Bavaria, during the summer of 1873, and published together that autumn as Opus 51. Like most piano quintets composed after Robert Schumann 's Piano Quintet (1842), it is written for piano and string quartet (two violins , viola and cello ). 59]--Part 1. 38 1880 Trio for Keyboard and Two Piano Trio No. The Emerson Quartet has presented a worthy recording, but moments of stridency that distort some of the tunings among instruments mar some of the movements. 2 in C major, Op. They are dedicated to his friend Theodor Billroth. Quasi menuetto, moderato. Allegro ma non tropp 06. Explore Brahms' longtime love affair with Hungarian gypsy music, epitomized in the electrifying finale to his G Minor Piano Quartet. The program consists of the 1st quartet in c minor (1873), a composition which attracted the particular interest of Arnold Schoenberg, who thought it showed Brahms' style concentrated into its essence, and the late 2nd quintet (1890) for string quartet plus viola. 163/D 956 Chadwick: Quartet for Strings no 4 in E minor Foote: Nocturne and Scherzo for Flute and String. Piano Quartet in C Minor Op 60 III Andante 9:22.